Willie 發問時間: 電腦與網際網路軟體 · 1 0 年前

影片轉MOV放到相機不能看(20點)

我用ImTOO MPEG Encoder 3把AVI的影片轉成MOV

放到相機還是不能看,誰可以教教我怎麼辦?

已更新項目:

Format : MPEG-4

Format profile : QuickTime

Codec ID : qt

File size : 539 KiB

Duration : 5s 38ms

Overall bit rate : 877 Kbps

2 個已更新項目:

Video #1

Format : AVC

Format/Info : Advanced Video Codec

Format profile : Main@L3.1

Format settings, CABAC : Yes

Format settings, ReFrames : 4 frames

Codec ID : avc1

Codec ID/Info : Advanced Video Coding

Duration : 5s 38ms

3 個已更新項目:

Bit rate mode : Variable

Width : 352 pixels

Height : 240 pixels

Display aspect ratio : 4/3

Frame rate mode : Constant

Frame rate : 29.970 fps

Resolution : 24 bits

Colorimetry : 4:2:0

Scan type : Progressive

Bits/(Pixel*Frame) : 0.000

4 個已更新項目:

Stream size : 456 KiB (85%)

Title : Ambarella AVC / Ambarella AVC

Encoded date : UTC 2009-01-24 17:21:09

Tagged date : UTC 2009-01-24 17:21:09

Audio #2

Format : AAC

Format/Info : Advanced Audio Codec

Format version : Version 4

Format profile : LC

5 個已更新項目:

Format settings, SBR : No

Codec ID : 40

Duration : 4s 885ms

Bit rate mode : Constant

Bit rate : 32.8 Kbps

Nominal bit rate : 128 Kbps

6 個已更新項目:

Channel(s) : 2 channels

Channel positions : L R

Sampling rate : 48.0 KHz

Resolution : 16 bits

Stream size : 19.6 KiB (4%)

Title : Ambarella AAC / Ambarella AAC

7 個已更新項目:

我影片格式可以教我怎樣設定嗎?

8 個已更新項目:

連不上去!

1 個解答

評分
還有問題?馬上發問,尋求解答。