KMPlayer編碼問題

--------------------

BINARY INFO

--------------------

FileName : xxxxx.rmvb

Data :

2E 52 4D 46 00 00 00 12 00 01 00 00 00 00 00 00 .RMF

...

...

...

...

...

...(省略)

6D 61 6C 00 44 41 54 41 1A A2 4F 22 00 00 00 07 mal DATA O"

--------------------

[檔案資訊]

--------------------

C:\Users\user\Desktop\xxxxx.rmvb

General

Complete name : C:\Users\user\Desktop\xxxxx.rmvb

Format : RealMedia

File size : 426 MiB

Duration : 1h 31mn

Overall bit rate : 637 Kbps

Video #1

ID : 1

Format : RealVideo 4

Codec ID : RV40

Codec ID/Info : Based on AVC (H.264), Real Player 9

Duration : 1h 31mn

Bit rate : 573 Kbps

Width : 672 pixels

Height : 368 pixels

Display aspect ratio : 16:9

Frame rate : 29.000 fps

Resolution : 12 bits

Bits/(Pixel*Frame) : 0.080

Stream size : 374 MiB (88%)

Audio #0

ID : 0

Format : Cooker

Codec ID : cook

Codec ID/Info : Based on G.722.1, Real Player 6

Duration : 1h 31mn

Bit rate : 64.1 Kbps

Channel(s) : 2 channels

Sampling rate : 44.1 KHz

Resolution : 16 bits

Stream size : 41.8 MiB (10%)

--------------------

[系統資訊]

--------------------

CPU 0: 2499MHz, Intel(R) Core(TM)2 Quad CPU Q8300 @ 2.50GHz, Intel64 Family 6 Model 23 Stepping 10

CPU 1: 2500MHz, Intel(R) Core(TM)2 Quad CPU Q8300 @ 2.50GHz, Intel64 Family 6 Model 23 Stepping 10

CPU 2: 2499MHz, Intel(R) Core(TM)2 Quad CPU Q8300 @ 2.50GHz, Intel64 Family 6 Model 23 Stepping 10

CPU 3: 2500MHz, Intel(R) Core(TM)2 Quad CPU Q8300 @ 2.50GHz, Intel64 Family 6 Model 23 Stepping 10

OS: Windows NT Home Edition(Version 6.1 Build 7600)

Video: ATI Radeon HD 4300/4500 Series

DirectX: 9.0c(4.09.00.0904)

Memory: All: 2,095,608 KB, Available: 686,932 KB, Used: 67%

CodePage: 950, Charset:1

Instruction: MMX MMX2 SSE SSE2 SSE3 64Bits

已更新項目:

--------------------

PLAYBACK INFO

--------------------

[視訊資訊]

解碼器 -No codec

[音訊資訊]

解碼器 -No codec

[基本視訊 DSP]

Internal brightness: 100%

[進階視訊 DSP]

+Video Plugin

[音訊 DSP]

+Pre amplification: Main: (100%)

+Auto Volume Control

+Audio Plugin

2 個已更新項目:

[字幕設定]

+Draw Mode(Selected): Image

+Draw Mode(In use): On Overlay

+Text Rendering Method: Rasterizer

+Support HTML Tags(SMI)

3 個已更新項目:

[KMPlayer]

+Version: 3.0.0.1438(6,384,640, 2010/9/15 上午 08:01:34)

+libcodec.dll: Exist(4,870,254, 2010/9/9 下午 05:14:36)

+libmplay.dll: Exist(431,616, 2008/7/14 上午 10:31:44)

+PProcDLL.dll: Exist(1,769,472, 2008/2/25 下午 02:07:04)

+LibDTS.dll: Exist(178,174, 2008/12/5 下午 03:42:20)

4 個已更新項目:

+liba52.dll: Exist(73,063, 2008/12/5 下午 03:41:10)

+libfaad2.dll: Exist(335,155, 2008/12/5 下午 03:37:06)

+libmad.dll: Exist(123,036, 2008/12/5 下午 03:42:30)

+libmpeg2.dll: Exist(154,644, 2008/12/5 下午 03:42:42)

+theora.dll: Exist(200,864, 2008/12/5 下午 03:43:32)

5 個已更新項目:

+OggVorbis.dll: Exist(1,165,312, 2008/2/25 下午 02:07:00)

+xviddll.dll: Exist(758,319, 2008/12/5 下午 03:58:36)

+Old_QUARTZ.DLL: Exist(770,048, 2008/2/25 下午 02:07:00)

+AboutDll.dll: Exist(105,472, 2005/10/3 下午 01:12:18)

+DTView.dll: Exist(104,448, 2008/2/25 下午 02:04:36)

6 個已更新項目:

+MPlayer.dll: Missed

+ImLoader.dll: Exist(856,064, 2008/2/25 下午 02:05:22)

如上

我要使用km開啟影片時

出現編碼錯誤

要使用media開起也不能看

個人習慣使用km

請問如何解決??

7 個已更新項目:

回大衛

我所下載的kmplayer

就是在

http://www.softking.com.tw/soft/clickcount.asp?fid...

下載的 ^^

8 個已更新項目:

那 請問

AVC - H.264 解碼器 及 G.722.1解碼器

可以給我兩個的載點嗎??

謝謝~~!!!

3 個解答

評分
還有問題?馬上發問,尋求解答。