promotion image of download ymail app
Promoted

會轉AVI的高手請進20點,拜託

各位高手啊!

小弟用格式工廠一段時間了

可是我現在想播放AVI的檔案

用高質量轉了,放下去卻是無法載入

要用低質量,又不想。

我現在用的是原廠的轉檔器

轉出來的格式都是AVI檔

但有個小問題...只要影片的大小超過

500MB它就不能放

所以我只好先轉500MB

再把剩下的用格式工廠轉成

MP4再用原廠的那個轉檔器轉剩下的

這樣等於是轉2次,我覺得很麻煩

想請問能不能把格式工廠的自訂改成

AVI..當然可以,我知道

我是說把AVI的視訊和音訊都改成

我現在原廠的格式

這是我用格式工廠的多媒體檔案信息

查的檔案格式:

General

Complete name : D:\PPSDownload\轉過滴\變形金鋼2(1)_new.avi

Format : AVI

Format/Info : Audio Video Interleave

File size : 294 MiB

Duration : 1h 16mn

Overall bit rate : 540 Kbps

Writing application : Lavf52.13.0

Video

ID : 0

Format : MPEG-4 Visual

Format profile : Simple@L1

Format settings, BVOP : No

Format settings, QPel : No

Format settings, GMC : No warppoints

Format settings, Matrix : Default (H.263)

Codec ID : FMP4

Duration : 1h 16mn

Bit rate : 400 Kbps

Width : 240 pixels

Height : 132 pixels

Display aspect ratio : 16:9

Frame rate : 23.000 fps

Resolution : 24 bits

Colorimetry : 4:2:0

Scan type : Progressive

Bits/(Pixel*Frame) : 0.549

Stream size : 218 MiB (74%)

Writing library : Lavc51.54.0

Audio

ID : 1

Format : MPEG Audio

Format version : Version 1

Format profile : Layer 3

Codec ID : 55

Codec ID/Hint : MP3

Duration : 1h 16mn

Bit rate mode : Constant

Bit rate : 128 Kbps

Channel(s) : 2 channels

Sampling rate : 44.1 KHz

Resolution : 16 bits

Stream size : 69.6 MiB (24%)

Alignment : Aligned on interleaves

Interleave, duration : 26 ms (0.60 video frame)我想請問,要怎麼把自訂的部份全部設成上面那樣?

我只看的懂Display aspect ratio : 16:9

16比4,其他的Video和Audio的部分我都看不懂

看的懂的高手拜託教我

會設的高手也拜託教我

拜託了

3 個解答

評分
  • 9 年前
    最佳解答

    我到是有ㄍ方法不知道行不行的通,你有聽過Im Too 3GP這項軟體?

    他可以轉許多的檔案就是無法轉15分以上的與RMVB檔大多的電影或動漫都是

    RMVB檔較多也因為這樣我找ㄌ8ㄍ月的時間終於讓我解開ㄌ15分以上無法轉的方法ㄌ!先用RealPlayer剪輯工具將影片瀏覽再用左右兩邊的框格選取片段,每一段請用10:00或15:00來擷取電影減完後就可以開始轉檔ㄌ!

    注意喔!→若是RMVB檔的話剪下的片段就算是用Im Too 3GP這項軟體來轉條件雖然達成ㄌ可是轉後會靜音那也沒用所以你就要用youtube上傳影片!再把他載下來!你一定再懷疑怎麼載吧!告訴你ㄍ秘密你用http://tw.getv-go.com/將你上傳的影片上方的網址複製貼在那ㄍ網頁中你會看到有一條... 貼上後搜尋會有影音載點你再把他載下來!按右鍵另存目標就可以載ㄌ!轉的時候以你要的畫質去轉!

    像是高畫第一個1280x720p

    碼率:1000~2000

    相對的1440x1080p

    碼率:3000~4000

    祝您成功也希望這是您答案!不妨試試喔!

    Im Too 3GP將這項軟體給你:http://www.xilisoft.com/downloads/x-3gp-video-conv...

    這是安裝後需要註冊的註冊碼: THEL-ORDO-FTHE-WAR0-FB5C-4246-BC76-9A27

    有問題請在跟我連絡:jacky06172007@yahoo.com.tw

    • Commenter avatar登入以對解答發表意見
  • 9 年前

    你好!

    你可以用DVDVideoSoft它是免費軟體,也是可轉avi

    你可以試試看!

    希望這有幫到你!

    參考資料: 自己
    • Commenter avatar登入以對解答發表意見
  • 曉得
    Lv 6
    9 年前

    原來你那麼有深度= =

    參考資料: 自己
    • Commenter avatar登入以對解答發表意見
還有問題?馬上發問,尋求解答。