promotion image of download ymail app
Promoted
JAN 發問時間: 電腦與網際網路其他:電腦 · 8 年前

mpg影片畫質的差異

這兩部影片畫質給它有些差異有一個79MB卻沒有另一部30M左右的清楚案出他播放資訊仍看不出差異在何處

(A)Format : MPEG-PS File size : 79.6 MiB Duration : 30s 720ms Overall bit rate : 21.7 Mbps Video #224 ID : 224 (0xE0) Format : MPEG Video Format version : Version 2 Format profile : Main@High Format settings, BVOP : Yes Format settings, Matrix : Default Format settings, GOP : M=3, N=12 Duration : 30s 631ms Bit rate : 20.9 Mbps Maximum bit rate : 15.0 Mbps Width : 720 pixels Height : 480 pixels Display aspect ratio : 4:3 Frame rate : 29.970 fps Standard : NTSC Color space : YUV Chroma subsampling : 4:2:0 Bit depth : 8 bits Scan type : Progressive Compression mode : Lossy Bits/(Pixel*Frame) : 2.020 Stream size : 76.4 MiB (96%)

(B)Format : MPEG-PS File size : 31.1 MiB Duration : 30s 368ms Overall bit rate : 8 578 Kbps Video #224 ID : 224 (0xE0) Format : MPEG Video Format version : Version 2 Format profile : Main@Main Format settings, BVOP : Yes Format settings, Matrix : Custom Format settings, GOP : M=3, N=15 Duration : 30s 297ms Bit rate : 8 000 Kbps Width : 720 pixels Height : 480 pixels Display aspect ratio : 16:9 Frame rate : 29.970 fps Standard : NTSC Color space : YUV Chroma subsampling : 4:2:0 Bit depth : 8 bits Scan type : Interlaced Scan order : Top Field First Compression mode : Lossy Bits/(Pixel*Frame) : 0.772 Stream size : 29.0 MiB (93%)

2 個解答

評分
  • ED
    Lv 4
    8 年前
    最佳解答

    A.

    Overall bit rate : 21.7 Mbps

    B.

    Overall bit rate : 8 578 Kbps

    「Bit Rate」是指單位時間播放壓縮後影片的位元數量,它相當於影片播放時的頻寬消耗量,以多少Kbps或Mbps為單位...

    1Kbps =1024bps

    1Mbps =1024Kbps

    但是影片播放時會受到你螢幕顯示能力影響...超出的話會修正使它不超過螢幕的顯示能力...所以你才會覺得都一樣...

    • Commenter avatar登入以對解答發表意見
  • 8 年前

    (A) 是Mpeg-2 高畫質模式 (比特率22Mb)

    (B)是Mpeg-2 標準畫質模式 (比特率9Mb)

    數據差異是很明顯,但一般人肉眼差異並不明顯 (不是眼睛有問題,多是設備因數)

    用普通顯示器是看不出來的,您可以將影片攜至專業印刷公司,請他們使用高階CRT螢幕播放才能看出一點點差異 (通常都要老闆跟您點醒您才能看出差異點...當年初入印刷業時我也看不出來)

    • Commenter avatar登入以對解答發表意見
還有問題?馬上發問,尋求解答。