promotion image of download ymail app
Promoted

camtasia studio8錄影無失真設定(來源低畫質)

請問如何在

來源影片:低畫質(有點模糊)

錄製跟來源畫質相同

大小接近

請問該如何設定 能讓畫質不變檔案稍小一點?

為了要保存網路教學影片,方便學習

只能用錄影的...所以才此發問

平常錄42分鐘左右的檔案直接輸出avi(不轉檔) 要5~6G檔案空間

來源檔案才115M

大小實在差太多了...

備註:來源影片格式

.wmv

Format : Windows Media

File size : 115 MiB

Duration : 43mn 7s

Overall bit rate mode : Constant

Overall bit rate : 373 Kbps

Maximum Overall bit rate : 379 Kbps

Encryption : http://www.microsoft.com/isapi/redir.dll?prd=wmdrm...

Encoded date : UTC 2010-08-11 09:36:09.656

Video

ID : 2

Format : VC-1

Format profile : MP@ML

Codec ID : WMV3

Codec ID/Info : Windows Media Video 9

Codec ID/Hint : WMV3

Description of the codec : Windows Media Video 9

Duration : 43mn 7s

Bit rate mode : Constant

Bit rate : 350 Kbps

Width : 720 pixels

Height : 480 pixels

Display aspect ratio : 3:2

Frame rate : 29.970 fps

Standard : NTSC

Bit depth : 8 bits

Scan type : Progressive

Compression mode : Lossy

Bits/(Pixel*Frame) : 0.034

Stream size : 108 MiB (94%)

Language : Chinese (TW)

Encryption : Encrypted

Audio

ID : 1

Format : WMA

Format profile

謝謝各位回答的朋友,拜託了 有點急感恩

已更新項目:

側錄的再轉檔會不會產生大量丟失畫質問題?

2 個已更新項目:

來源檔案指的是網路影片他本身的畫質

我側錄的設定值是

Format : AVI

Format/Info : Audio Video Interleave

Format profile : OpenDML

File size : 5.73 GiB

Duration : 55mn 9s

3 個已更新項目:

Overall bit rate : 14.9 Mbps

Video

ID : 0

Format : tsc2

Codec ID : tsc2

Duration : 55mn 9s

Bit rate : 14.5

4 個已更新項目:

Width : 720 pixels

Height : 480 pixels

Display aspect ratio : 3:2

Frame rate : 30.000 fps

Standard : NTSC

Bits/(Pixel*Frame) : 1.400

5 個已更新項目:

Stream size : 5.59 GiB (98%)

Audio

Bit rate : 352.8 Kbps

Channel(s) : 1 channel

Sampling rate : 22.05 KHz

Bit depth 16 bits

6 個已更新項目:

謝謝dfg

原來因此過大.....請問應該要如何調比較好? 因為影片本身就不佳了若也是調350Kbps不知道會不有影響另外

這套軟體可以直接存成avi(上面所看到的編碼格式)或camrec格式....

1.若要轉成其他的格式是否可以達到損失畫質到肉眼無法分辨的情況

2.或著直接設定讓錄製時檔案小一點?

3 個解答

評分
  • 三合
    Lv 7
    8 年前
    最佳解答

    圖片參考:http://imgcld.yimg.com/8/n/AD07737857/o/1012102304...

    圖片參考:http://imgcld.yimg.com/8/n/AD07737857/o/1012102304...

    可以了解AVI...都是可以有多種編碼

    各種格式是不同集團為生意上的競爭所開發

    如果以早期研發的編碼轉檔容量較大

    如果以後期研發的H264編碼轉檔容量較小

    每種格式在同樣的解析度又有多種位元率品質

    不知道您的版本可以調整多少設定

    圖片參考:http://imgcld.yimg.com/8/n/AD07737857/o/1012102304...

    建議找轉檔軟體做轉檔處理較快速

    影片位元率原為350 Kbps

    要縮小檔案就必需壓至比350 Kbps低

    您可以剪1小段影片切換不同的編碼與品質做實際測試

    還有不了解點我的身份做參考

    參考資料:

    圖片參考:http://imgcld.yimg.com/8/n/AD07737857/o/1012102304...

    2012-10-25 00:25:26 補充:

    一般網站在硬體設備及網路傳輸流量負荷的考量

    對影片品質標準該條到那個程度已經做極度的測試

    如果是早期上傳的影片

    在新的壓縮技術或許您能做到維持原畫質容量低於原檔

    撿視Camtasia Studio 可調整AVI的設定實在有限

    建議您改輸出為WMV/MP4試試

    對容量還不滿意建議您以原解析度轉檔FLV...其它高壓縮格式

    或者直接抓原檔換能調整更多的錄影軟體

    http://tw.knowledge.yahoo.com/question/question?qi...

    • Commenter avatar登入以對解答發表意見
  • 8 年前

    那個東西算是古物級的影片 想要翻拍保存 所以才在資質不佳的情況下,想達到最佳畫質跟檔案大小 之間取得平衡點 。 畫質為優先

    • Commenter avatar登入以對解答發表意見
  • 8 年前

    原始影片碼流每秒 350 Kbps,您重錄成每秒 14.5 Mbps,當然檔案會爆肥 ... 另外14.5 Mbps已經是藍光等級的碼流標準了。

    2012-10-24 21:52:50 補充:

    ... 有聽過成語 <東施效顰> 嗎? 本身資質不佳,東施要變西施 ... 強人所難吧!

    01. 任何影片壓縮格式都會損失畫質 ... 至於所謂肉眼無法分辨的情況,將會因你我之人體眼球及大腦構造而有所差異 (我定義的好畫質與您的定義並不會相同,因為你不是我,致定標準的也不是你我,所以不管VCD、DVD、BD都有人嫌)。

    02. 所以就是直接控制碼流速率啊。

    • Commenter avatar登入以對解答發表意見
還有問題?馬上發問,尋求解答。